我爱分享资源论坛

 找回密码
 立即注册
查看: 308|回复: 6

Weekend -《音响绝唱(壮丽的声音)》(SOUND SPECTACULAR)[APE]

[复制链接]
发表于 2020-12-12 18:07:07 | 显示全部楼层 |阅读模式
Weekend -《音响绝唱(壮丽的声音)》(SOUND SPECTACULAR)[APE]

此唱片又名“音响绝唱”,现在早已绝版,市面上不多的一点儿存货也已被炒到天价。
这是张比较难播的CD,音效偏向阳刚生猛,在一些音色偏冷、分析力不高的组合上播,听到的可能是干、硬、乱的音色,但如果组合档次不低、调整得当的话,它可以还原出极大极深的音场、波澜壮阔的场面和无与伦比的临场感。

  
  第二段两支军队行进交火的场面尤为"壮观" 士官的呐喊 后方军乐队的演奏 骑兵来回的急弛(嘴里还叫着English coming!)和枪炮的轰鸣绝对是纤毫毕现。
  代码PERFORMER "Weekend Classics"
FILE "Weekend.-.[SOUND.SPECTACULAR].专辑.(ape).ape" WAVE
    TITLE "Exodus - Ari's Theme"
    INDEX 00 00:00:00
  TRACK 02 AUDIO
    PERFORMER "Weekend Classics"
    INDEX 01 03:28:40
    TITLE "In a Monastery Garden"
    INDEX 00 08:58:45
  TRACK 04 AUDIO
    PERFORMER "Weekend Classics"
    INDEX 01 14:36:42
    TITLE "Circus Spectacular"
    INDEX 00 21:50:62
  TRACK 06 AUDIO
    PERFORMER "Weekend Classics"
    INDEX 01 35:44:52
    TITLE "Shema/Have Nagila"
    INDEX 00 38:55:27
  TRACK 08 AUDIO
    PERFORMER "Weekend Classics"
    INDEX 01 43:45:35
    TITLE "Doctor Zhivago"
    INDEX 00 49:18:47
  TRACK 10 AUDIO
    PERFORMER "Weekend Classics"
    INDEX 01 55:14:52        
        
:
2. March of the Grenadiers/Yankee Doodle 掷弹兵进行曲
4. Meadowland 草原
6. La Normandie - Cancan 诺曼底-康康舞曲
8. Crimean War 克里米娅战争
10. 1812 Overture 1812序曲        

1.jpg [下载地址]

购买主题 已有 2 人购买  本主题需向作者支付 100 爱心 才能浏览

0

主题

9

帖子

195

积分

铜版会员

Rank: 2

积分
195
发表于 2020-12-13 22:08:46 | 显示全部楼层
谢谢分享
回复

使用道具 举报

 楼主| 发表于 2020-12-14 08:36:23 | 显示全部楼层
@xzw0102,谢谢您的关注和支持。
回复

使用道具 举报

4

主题

12

帖子

499

积分

铜版会员

Rank: 2

积分
499
发表于 2020-12-14 09:10:26 | 显示全部楼层
找了好久,好资源,谢谢分享!
回复

使用道具 举报

发表于 2020-12-14 09:58:25 | 显示全部楼层
谢谢分享!
回复

使用道具 举报

18

主题

87

帖子

1万

积分

论坛元老

Rank: 8Rank: 8

积分
17706
发表于 2020-12-14 14:38:01 | 显示全部楼层
本帖最后由 大王来巡山 于 2020-12-14 14:43 编辑

100积分就是10元,好资源,好便宜哦,买了,算是感谢坛主为大家辛苦整理工作支持的一点心意吧
回复

使用道具 举报

15

主题

36

帖子

1万

积分

论坛元老

Rank: 8Rank: 8

积分
17812
发表于 2020-12-14 14:54:20 | 显示全部楼层
好资源,谢谢版主分享
回复

使用道具 举报

您需要登录后才可以回帖 登录 | 立即注册

本版积分规则

关闭

站长推荐上一条 /1 下一条

QQ|Archiver|手机版|小黑屋|我爱分享资源博客 ( 琼ICP备20002723号-5 )

GMT+8, 2021-3-7 02:01 , Processed in 0.070180 second(s), 28 queries .

Powered by Discuz! X3.4 Licensed

Copyright © 2001-2020, Tencent Cloud.

快速回复 返回顶部 返回列表